#TITLE:Xuxa;
#SUBTITLE:;
#ARTIST:☺;
#TITLETRANSLIT:;
#SUBTITLETRANSLIT:;
#ARTISTTRANSLIT:Smiley;
#CREDIT:;
#BANNER:Xuxa_logo.jpg;
#BACKGROUND:Xuxa_bg.jpg;
#LYRICSPATH:;
#CDTITLE:Lan.png;
#MUSIC:Xuxa.mp3;
#OFFSET:-0.040;
#SAMPLESTART:100.000;
#SAMPLELENGTH:12.000;
#SELECTABLE:YES;
#BPMS:0.000=160.000;
#STOPS:;
#BGCHANGES:;
// cache tags:
#FIRSTBEAT:4.000;
#LASTBEAT:323.000;
#SONGFILENAME:Songs/lan sky/Xuxa/Xuxa.sm;
#HASMUSIC:1;
#HASBANNER:1;
#MUSICLENGTH:122.139;
// end cache tags

//---------------dance-single - sky----------------
#NOTES:
     dance-single:
     sky:
     Hard:
     10:
     1.000,1.000,1.000,0.000,1.000,862.000,147.000,0.000,0.000,5.000:

0000
0000
0000
0000
,
0001
0000
0100
0010
0000
0100
1000
0000
0001
0000
0010
0001
0000
0010
0100
0000
,
1000
0000
0001
0010
0000
0100
0010
0000
0100
1000
0000
0010
0001
0000
0100
0000
,
1000
0000
0010
0001
0000
0010
0100
0000
0001
0000
0100
0010
0000
1000
0100
0000
,
0001
0000
0100
0010
0000
0001
0010
0000
1000
0100
0000
0001
0010
0000
1000
0000
,
0101
0110
1100
0011
,
1010
0000
0110
0000
1001
0000
0101
0101
,
0101
1100
0110
1010
,
0101
0000
0000
0000
0011
0000
0000
0000
0000
0000
0010
0100
1001
0000
0100
0010
,
1001
0000
0010
0100
0011
1000
0100
0000
0101
0000
0010
0100
0011
0100
1000
0000
,
0110
0000
0001
0010
0101
1000
0100
0000
0101
0010
0000
0001
1100
0000
1100
0000
,
1100
0000
0010
0100
1001
0010
0001
0000
1100
0000
0010
0100
1001
0010
0001
0000
,
0110
0000
0000
0000
1000
0000
0100
0000
1001
0000
0010
0000
0100
0000
0000
0000
0101
0000
0010
0000
0000
0000
0100
0000
1010
0000
0000
0000
0100
0000
0001
0010
,
1100
0000
0010
0100
1001
0010
0001
0000
0110
0000
0001
0010
0101
1000
0100
0000
,
0011
0000
0100
0010
1100
0010
0001
0000
0110
1000
0000
0001
1010
0000
0100
0000
,
0011
0000
0010
0100
1001
0010
0001
0000
0110
0000
0001
0010
0101
1000
0100
0000
,
0011
0000
0000
0000
0100
0000
0010
0000
1001
0000
0010
0000
0100
0000
0000
0000
0101
0000
0010
0000
0000
0000
1000
0100
0011
0000
0000
0000
0010
0000
0100
0010
,
1001
0000
0100
0010
1100
0001
0010
0000
1001
0000
0100
0010
0101
1000
0100
0000
,
0001
0010
0100
0010
0000
0000
0000
0000
0100
0010
0001
0010
0000
0000
0000
0000
0010
0100
1000
0100
0000
0000
0000
0000
1000
0000
0000
0000
0010
0000
0000
0000
,
0001
0000
0010
0100
1010
0001
0010
0000
0101
0000
0010
0001
1010
0100
0010
0000
,
0100
0010
0100
1000
0000
0000
0000
0000
0001
0010
0100
0010
0000
0000
0000
0000
0001
0100
0010
0001
0000
0000
0000
0000
1100
0000
0000
0000
0001
0000
0010
0100
,
0011
0000
0100
1000
0101
0010
0100
0000
1001
0000
0001
0010
1001
0100
0010
0000
,
1100
0010
0100
1000
0000
0000
0000
0000
0101
0010
0001
0010
0000
0000
0000
0000
1001
0010
0100
1000
0000
0000
0000
0000
0011
0000
0000
0000
1000
0000
0000
0000
,
0110
0000
0100
1000
0101
0010
0001
0000
1100
0000
0010
0001
0110
0001
0010
0000
,
0101
0010
0100
1000
0000
0000
0000
0000
1100
0010
0001
0010
0000
0000
0000
0000
0101
0010
0100
1000
0000
0000
0000
0000
0110
0000
0000
0000
0001
0000
0010
0100
,
1010
0000
1111
0000
,
1111
0000
0000
0000
0010
0001
0100
0010
1000
0000
0000
0000
0011
0000
0000
0000
,
0100
0000
0010
0000
0001
0000
0010
0000
1000
0100
0010
0001
0010
0100
0010
0001
,
0010
0000
0100
0000
0010
0000
0001
0000
0100
1000
0100
0010
0001
0010
0100
0010
,
0001
0000
0010
0000
1000
0000
0010
0000
0100
0000
0001
0010
0000
0000
0001
0000
,
0000
0000
0100
0000
0010
0000
0001
0000
0010
0100
0010
0100
1000
0100
0010
0001
,
0010
0000
0100
0000
0010
0000
0001
0000
0100
0010
0001
0100
1000
0000
0001
0000
,
0010
0000
0001
0000
0100
0000
0010
0000
0001
0000
1000
0000
0010
0000
0100
0010
,
0001
0000
0000
0100
1000
0000
0000
0010
,
0100
0000
0010
0000
0001
0000
0100
0000
0010
0100
1000
0001
0100
0010
0001
0010
,
1000
0100
0010
0001
0010
0100
0010
0001
0010
0100
1000
0100
0010
0001
0010
0100
,
1000
0100
0010
0001
0010
0100
1000
0100
0010
0001
0010
0100
1000
0100
0010
0100
,
1000
0100
0010
0001
0010
0100
0010
0001
0010
0001
0010
0100
1000
0100
0010
0100
,
1000
0100
0010
0001
0010
0100
1000
0100
0010
0001
0010
0100
1000
0100
0010
0100
,
1000
0100
1000
0100
0010
0100
1000
0100
0010
0001
0010
0100
0010
0100
0010
0001
,
0010
0100
0010
0001
0010
0100
1000
0100
0010
0001
0010
0100
1000
0100
0010
0100
,
1000
0100
0010
0001
0010
0100
1000
0100
0010
0001
0010
0100
1000
0100
1000
0100
,
1000
0100
0010
0001
0010
0100
0010
0100
0010
0001
0010
0100
1000
0100
0010
0001
,
0100
0000
0010
0001
0100
0000
0010
1000
,
0001
0000
0000
0000
0000
0000
0001
0010
0100
0000
0000
0000
0010
0000
0000
0000
,
0010
1000
0100
0001
0010
0000
0001
0000
0010
0000
0000
0000
0100
0000
0010
0000
,
1000
0001
0010
0100
0010
0100
1000
0001
0010
0000
0000
0000
0000
0000
0000
0000
,
0100
0000
0010
1000
0001
0000
0010
0100
,
0010
0000
0000
0000
1000
0000
0010
0001
0100
0000
0000
0000
0010
0000
0001
0000
,
0100
0010
0001
1000
0100
0000
0010
0000
0100
0000
0001
0000
0010
0000
0001
0000
,
0100
0000
0010
0000
0100
0000
0001
0000
0100
0001
0010
0100
1000
0010
0001
0010
,
0100
0000
0010
1000
0100
0000
0010
0001
,
0010
0000
0000
0000
0000
0000
0100
0001
0010
0000
0000
0000
0100
0000
0000
0000
,
0100
0010
0001
1000
0100
0000
0010
0000
0100
0000
1000
0000
0001
0000
0010
0000
,
0100
0010
0001
0100
0001
0010
0100
1000
0100
0000
0000
0000
0000
0000
0000
0000
,
0010
0000
1000
0100
0000
1000
0001
0000
0010
0000
0100
0010
0000
0100
1000
0000
,
0001
0000
0010
0100
0000
1000
0100
0000
1000
0001
0000
0100
0010
0000
1000
0000
,
0001
0000
0100
0010
0000
0100
1000
0000
0010
0000
1000
0100
0000
0001
1000
0000
,
0010
0000
1000
0100
0000
0010
0100
0000
0001
1000
0000
0010
0100
0000
0001
0000
,
0010
0000
0100
0010
0000
0100
1000
0000
0001
0000
0010
0001
0000
0010
0100
0000
,
1000
0000
0001
0010
0000
0100
0010
0000
0100
1000
0000
0010
0001
0000
0100
0000
,
1000
0000
0010
0001
0000
0010
0100
0000
0001
0010
0100
0010
0000
1000
0100
0000
,
0001
0000
0000
0000
0000
0000
0000
0000
1000
0100
0010
0100
0010
0001
0010
0100
,
0011
0000
1000
0100
0011
1000
0100
0000
1010
0000
0100
0010
1001
0100
1000
0000
,
0101
0000
0010
0100
1010
0100
0010
0000
1001
0010
0000
0100
0011
0000
0011
0000
,
0011
0000
0010
0100
1010
0001
1000
0000
0110
0000
1000
0001
1100
0010
0001
0000
,
0110
0000
0000
0000
1000
0000
0010
0000
1001
0000
0100
0000
0001
0000
0000
0000
0110
0000
1000
0000
0000
0000
0100
0000
1010
0000
0000
0000
0000
0000
0010
0100
,
1000
0000
0000
0000
0000
0000
0001
0010
1100
0000
0001
0000
1000
0000
0000
0000
0011
0000
0000
0000
0100
0000
0010
0000
1001
0000
0100
0000
0001
0000
0000
0000
,
1010
0000
0010
0100
0011
1000
0100
0000
0101
1000
0000
0100
1010
0000
1010
0000
,
1010
0000
0100
0010
0101
1000
0010
0000
0101
0010
0100
1000
0011
0100
0001
0000
,
0110
0000
0100
1000
0011
0000
0100
0000
0000
0000
0100
0010
1001
0000
0100
0010
,
1001
0000
0100
0010
1100
0001
0010
0000
1001
0000
0100
0010
0101
1000
0100
0000
,
1001
0010
0100
0010
0000
0000
0000
0000
1100
0010
0001
0010
0000
0000
0000
0000
0011
0100
1000
0100
0000
0000
0000
0000
1100
0000
0000
0000
1100
0000
0000
0000
,
1100
0000
0010
0100
1010
0001
0010
0000
0101
0000
0010
0001
1010
0100
0010
0000
,
0101
0010
0100
1000
0000
0000
0000
0000
1001
0010
0100
0010
0000
0000
0000
0000
0011
0100
0010
0001
0000
0000
0000
0000
1100
0000
0000
0000
0001
0000
0010
0100
,
1010
0000
0001
0010
0101
1000
0100
0000
0011
0000
0100
1000
0101
0010
0001
0000
,
1010
0001
0010
0100
0000
0000
0000
0000
1100
0001
0010
0001
0000
0000
0000
0000
1001
0010
0001
0100
0000
0000
0000
0000
0110
0000
0000
0000
0110
0000
0000
0000
,
0110
0000
1000
0010
1100
0001
0010
0000
0110
0000
0010
0001
0110
1000
0100
0000
,
1001
0010
0100
0010
0000
0000
0000
0000
0101
0010
0001
0010
0000
0000
0000
0000
0011
0100
1000
0100
0000
0000
0000
0000
0101
0000
0000
0000
0010
0000
0000
0000
,
1111
0000
1111
0000
,
1111
0000
0000
0000
0001
0100
0010
1000
0100
0000
0000
0000
0110
0000
0000
0000
;
